Animagia.pl

Polskie wydawnictwo anime

Statystyki dla nerdów

Szczegóły techniczne o plikach wideo, które udostępniamy do ściągnięcia. Powrót do sklepu

$ ffprobe \[Animagia.pl\]\ Amagi\ Brilliant\ Park\ 01\ 1080p.mkv

Input #0, matroska,webm, from '[Animagia.pl] Amagi Brilliant Park 01 1080p.mkv':
  Metadata:
    creation_time   : 2018-05-14T12:05:48.000000Z
    ENCODER         : Lavf57.71.100
  Duration: 00:24:11.08, start: -0.007000, bitrate: 2832 kb/s
    Chapter #0:0: start 0.000000, end 47.387000
    Metadata:
      title           : Intro
    Chapter #0:1: start 47.387000, end 137.186000
    Metadata:
      title           : OP
    Chapter #0:2: start 137.186000, end 530.203000
    Metadata:
      title           : Część A
    Chapter #0:3: start 530.203000, end 535.208000
    Metadata:
      title           : Eyecatch
    Chapter #0:4: start 535.208000, end 1330.211000
    Metadata:
      title           : Część B
    Chapter #0:5: start 1330.211000, end 1420.218000
    Metadata:
      title           : ED
    Chapter #0:6: start 1420.218000, end 1451.077000
    Metadata:
      title           : Kącik atrakcji
    Stream #0:0: Video: vp9 (Profile 2), yuv420p10le(tv), 1920x1080, SAR 1:1 DAR 16:9, 23.98 fps, 23.98 tbr, 1k tbn, 1k tbc (default)
    Metadata:
      ENCODER         : Lavc57.89.100 libvpx-vp9
      BPS             : 2513057
      BPS-eng         : 2513057
      DURATION        : 00:24:11.076000000
      DURATION-eng    : 00:24:11.076000000
      NUMBER_OF_FRAMES: 34791
      NUMBER_OF_FRAMES-eng: 34791
      NUMBER_OF_BYTES : 455829646
      NUMBER_OF_BYTES-eng: 455829646
      _STATISTICS_WRITING_APP: mkvmerge v15.0.0 ('Duel with the Devil') 64-bit
      _STATISTICS_WRITING_APP-eng: mkvmerge v15.0.0 ('Duel with the Devil') 64-bit
      _STATISTICS_WRITING_DATE_UTC: 2018-05-14 12:05:48
      _STATISTICS_WRITING_DATE_UTC-eng: 2018-05-14 12:05:48
      _STATISTICS_TAGS: BPS DURATION NUMBER_OF_FRAMES NUMBER_OF_BYTES
      _STATISTICS_TAGS-eng: BPS DURATION NUMBER_OF_FRAMES NUMBER_OF_BYTES
    Stream #0:1(jpn): Audio: opus, 48000 Hz, stereo, fltp (default)
    Metadata:
      ENCODER         : Lavc57.89.100 libopus
      BPS             : 157627
      BPS-eng         : 157627
      DURATION        : 00:24:11.084000000
      DURATION-eng    : 00:24:11.084000000
      NUMBER_OF_FRAMES: 72555
      NUMBER_OF_FRAMES-eng: 72555
      NUMBER_OF_BYTES : 28591261
      NUMBER_OF_BYTES-eng: 28591261
      _STATISTICS_WRITING_APP: mkvmerge v15.0.0 ('Duel with the Devil') 64-bit
      _STATISTICS_WRITING_APP-eng: mkvmerge v15.0.0 ('Duel with the Devil') 64-bit
      _STATISTICS_WRITING_DATE_UTC: 2018-05-14 12:05:48
      _STATISTICS_WRITING_DATE_UTC-eng: 2018-05-14 12:05:48
      _STATISTICS_TAGS: BPS DURATION NUMBER_OF_FRAMES NUMBER_OF_BYTES
      _STATISTICS_TAGS-eng: BPS DURATION NUMBER_OF_FRAMES NUMBER_OF_BYTES
    Stream #0:2(pol): Audio: opus, 48000 Hz, stereo, fltp
    Metadata:
      BPS             : 155423
      BPS-eng         : 155423
      DURATION        : 00:24:09.946000000
      DURATION-eng    : 00:24:09.946000000
      NUMBER_OF_FRAMES: 72498
      NUMBER_OF_FRAMES-eng: 72498
      NUMBER_OF_BYTES : 28169532
      NUMBER_OF_BYTES-eng: 28169532
      _STATISTICS_WRITING_APP: mkvmerge v15.0.0 ('Duel with the Devil') 64-bit
      _STATISTICS_WRITING_APP-eng: mkvmerge v15.0.0 ('Duel with the Devil') 64-bit
      _STATISTICS_WRITING_DATE_UTC: 2018-05-14 12:05:48
      _STATISTICS_WRITING_DATE_UTC-eng: 2018-05-14 12:05:48
      _STATISTICS_TAGS: BPS DURATION NUMBER_OF_FRAMES NUMBER_OF_BYTES
      _STATISTICS_TAGS-eng: BPS DURATION NUMBER_OF_FRAMES NUMBER_OF_BYTES
    Stream #0:3(pol): Subtitle: ass (default)
    Metadata:
      title           : Bardziej japońskie
      BPS             : 116
      BPS-eng         : 116
      DURATION        : 00:23:51.560000000
      DURATION-eng    : 00:23:51.560000000
      NUMBER_OF_FRAMES: 353
      NUMBER_OF_FRAMES-eng: 353
      NUMBER_OF_BYTES : 20897
      NUMBER_OF_BYTES-eng: 20897
      _STATISTICS_WRITING_APP: mkvmerge v15.0.0 ('Duel with the Devil') 64-bit
      _STATISTICS_WRITING_APP-eng: mkvmerge v15.0.0 ('Duel with the Devil') 64-bit
      _STATISTICS_WRITING_DATE_UTC: 2018-06-01 15:15:43
      _STATISTICS_WRITING_DATE_UTC-eng: 2018-06-01 15:15:43
      _STATISTICS_TAGS: BPS DURATION NUMBER_OF_FRAMES NUMBER_OF_BYTES
      _STATISTICS_TAGS-eng: BPS DURATION NUMBER_OF_FRAMES NUMBER_OF_BYTES
    Stream #0:4(pol): Subtitle: ass
    Metadata:
      title           : Bardziej polskie
      BPS             : 116
      BPS-eng         : 116
      DURATION        : 00:23:51.560000000
      DURATION-eng    : 00:23:51.560000000
      NUMBER_OF_FRAMES: 353
      NUMBER_OF_FRAMES-eng: 353
      NUMBER_OF_BYTES : 20837
      NUMBER_OF_BYTES-eng: 20837
      _STATISTICS_WRITING_APP: mkvmerge v15.0.0 ('Duel with the Devil') 64-bit
      _STATISTICS_WRITING_APP-eng: mkvmerge v15.0.0 ('Duel with the Devil') 64-bit
      _STATISTICS_WRITING_DATE_UTC: 2018-06-01 15:15:43
      _STATISTICS_WRITING_DATE_UTC-eng: 2018-06-01 15:15:43
      _STATISTICS_TAGS: BPS DURATION NUMBER_OF_FRAMES NUMBER_OF_BYTES
      _STATISTICS_TAGS-eng: BPS DURATION NUMBER_OF_FRAMES NUMBER_OF_BYTES
    Stream #0:5: Attachment: ttf
    Metadata:
      filename        : SourceSansPro-Semibold.ttf
      mimetype        : application/x-truetype-font
    Stream #0:6: Attachment: ttf
    Metadata:
      filename        : SourceSerifPro-Semibold.ttf
      mimetype        : application/x-truetype-font

Film Chuunibyou ma o około połowę wyższy bitrate wideo i rozdzielczość 1920×1036. Bitrate audio w przeliczeniu na kanał jest podobny jak w Amagi.